变形金刚中国联盟社区:TFCLUB社区

 找回密码
 注册
搜索
热搜: 活动 交友 discuz
查看: 5476|回复: 4

《变形金刚 领袖之证:黑暗崛起》DVD简单评测~!

  [复制链接]
发表于 2012-1-25 21:33:56 | 显示全部楼层 |阅读模式
本帖最后由 dark3 于 2012-1-26 11:34 编辑

片码地区:美国一区
分比率:720*480
DVD容量:D9
音轨:两条AC3音轨(其中一个西班牙??)
=====================================================================================================
完整编码信息:(看不懂请跳过!)
  1. Format : MPEG-PS

  2. File size : 1 024 MiB

  3. Duration : 18mn 23s

  4. Overall bit rate : 7 783 Kbps



  5. Video

  6. ID : 224 (0xE0)

  7. Format : MPEG Video

  8. Format version : Version 2

  9. Format profile : Main@Main

  10. Format settings, Matrix : Default

  11. Duration : 18mn 23s

  12. Bit rate mode : Constant

  13. Bit rate : 6 834 Kbps

  14. Nominal bit rate : 7 000 Kbps

  15. Width : 720 pixels

  16. Height : 480 pixels

  17. Display aspect ratio : 16:9

  18. Frame rate : 23.976 fps

  19. Standard : NTSC

  20. Colorimetry : 4:2:0

  21. Scan type : Progressive

  22. Scan order : 2:3 Pulldown

  23. Bits/(Pixel*Frame) : 0.825

  24. Stream size : 899 MiB (88%)



  25. Audio #1

  26. ID : 128 (0x80)

  27. Format : AC-3

  28. Format/Info : Audio Coding 3

  29. Duration : 18mn 23s

  30. Bit rate mode : Constant

  31. Bit rate : 448 Kbps

  32. Channel(s) : 6 channels

  33. Channel positions : Front: L C R, Surround: L R, LFE

  34. Sampling rate : 48.0 KHz

  35. Video delay : -83ms

  36. Stream size : 58.9 MiB (6%)



  37. Audio #2

  38. ID : 129 (0x81)

  39. Format : AC-3

复制代码

====================================================================================

DVD包装盒和碟封面:




读盘之后,第一出现就是这个,任何美国的DVD碟都是会有这样来自“FBI警告”,DVD公司的16秒左右,然后到长达几分钟的广告,都是什么数码修复之后,在压盘,以坑爹形式销售....

(这里不截图了!)

这DVD画质还可以,虽然分辨率较低,但是画面的质感和鲜艳度却比720P WEBDL版本要好,跟720P的TV有图标版持平!
如果大家对分辨率不太在意,收藏这个光盘还是值的!

720P 高清录制版

DVD

720P 高清录制版:

DVD:
720P 高清录制版:
DVD:
720P 高清录制版:
DVD:
720P 高清录制版:
DVD:

这DVD直接将前5话直接连接起来的,1-5集连续 中间无分割集,把5集动画直接弄成像一部剧场版,像《EVA:序》那样,把TV版前6话做成一部剧场版。(当然,TFP内容上是没有任何改变的。)

以下是DVD菜单的截图:
[20120125-1447170].JPG [20120125-1435158].JPG [20120125-1431468].JPG

花絮截图:
[20120125-1434234].JPG [20120125-1434245].JPG [20120125-1434256].JPG [20120125-1434447].JPG [20120125-1432040].JPG [20120125-1432081].JPG [20120125-1432275].JPG [20120125-1432244].JPG [20120125-1432133].JPG [20120125-1432122].JPG [20120125-1433289].JPG [20120125-1433248].JPG [20120125-1433167].JPG [20120125-1433136].JPG [20120125-1433350].JPG [20120125-1433461].JPG [20120125-1434092].JPG


三个花絮我已经导出来,上传到在线视频网站上:


《变形金刚:领袖之证》花絮:人物角色原画设计
http://www.56.com/u45/v_NjYwMDcyNTA.html
《变形金刚:领袖之证》花絮:场景原画设计
http://www.56.com/u39/v_NjYwMDczMzI.html
《变形金刚:领袖之证》花絮:第一集的原画动画
http://www.56.com/u34/v_NjYwMDc0MTU.html

关于音轨,我觉得无语,第二条音轨居然打着 西班牙语,选择后听起来还是英语,但是听起来有点带罗马音(类似 《刺客信条》 里面那些人物说的英语)。

2.JPG
[20120125-1434173].JPG
[20120125-1435158].JPG
 楼主| 发表于 2012-1-26 11:29:24 | 显示全部楼层
此楼就在弄一次资源整理吧:
【DVD镜像盘】Transformers:Prime_Darkness_Rising R1_NTSC_DVD9
http://club.tfclub.com/viewthread.php?tid=39907&extra=page%3D1
DVD压制:
Transformers_Prime_Darkness_Rising_2011_DVDRip_XviD_Eko_-.torrent (39.81 KB, 下载次数: 638)
发表于 2012-1-26 11:50:18 | 显示全部楼层
来自FBI的警告。。。是不是指不偷汽车,电视碟片但下载盗版就是犯罪???
TFP前5集可以合成剧场版,但EVA剧场版1显然比TFP剧场版看得让人眼晕许多。。。(可怕的剪辑啊!)
 楼主| 发表于 2012-1-26 11:59:13 | 显示全部楼层
回复 3# 古堡蝙蝠


    这个我记得有张《虎胆龙威4》那张DVD好像你说的那样,但是领袖之证的碟却不是那样...

[img[/img]
发表于 2012-1-26 14:22:37 | 显示全部楼层
嗯嗯,引入中国吧!强烈建议!
您需要登录后才可以回帖 登录 | 注册

本版积分规则

Archiver|手机版|小黑屋|变形金刚中国联盟  

GMT+8, 2020-11-29 18:15 , Processed in 0.162795 second(s), 22 queries .

Powered by Discuz! X3.1

© 2001-2013 Comsenz Inc.

快速回复 返回顶部 返回列表